<?xml version="1.0" standalone="no"?>
<!DOCTYPE svg PUBLIC "-//W3C//DTD SVG 1.1//EN" "http://www.w3.org/Graphics/SVG/1.1/DTD/svg11.dtd">
<svg xmlns="http://www.w3.org/2000/svg">
<metadata>Generated by Fontastic.me</metadata>
<defs>
<font id="wpsp-icons" horiz-adv-x="512">
<font-face font-family="wpsp-icons" units-per-em="512" ascent="480" descent="-32"/>
<missing-glyph horiz-adv-x="512" />

<glyph glyph-name="bell" unicode="&#97;" d="M504 146c-60 60-69 91-69 187 0 99-80 179-179 179-99 0-179-80-179-179 0-52-2-71-9-95-9-30-27-58-60-92-17-16-5-44 18-44l142 0-2-12c0-50 41-90 90-90 49 0 90 40 90 90l-2 12 142 0c23 0 35 28 18 44z m-248-120c-35 0-64 28-64 64l1 12 126 0 1-12c0-36-29-64-64-64z m-230 102c76 77 76 128 76 205 0 85 69 153 154 153 85 0 154-68 154-153 0-77 0-128 76-205z"/>
<glyph glyph-name="calendar" unicode="&#98;" d="M512 164c-2 56-36 107-88 130l0 155c0 15-12 27-27 27l-26 0c0 14-12 26-27 26-14 0-26-12-26-26l-36 0c0 14-11 26-26 26-15 0-27-12-27-26l-35 0c0 14-12 26-26 26-15 0-27-12-27-26l-35 0c0 14-12 26-27 26-14 0-26-12-26-26l-26 0c-15 0-27-12-27-27l0-371c0-5 4-9 9-9l26 0 0-26c0-5 4-9 9-9l233 0c0 0 0 0 0 0 47-32 108-35 157-8 50 28 80 81 78 138z m-176 312c0 4 4 8 8 8 5 0 9-4 9-8l0-27-18 0 0 27z m-89 0c0 4 4 8 9 8 5 0 9-4 9-8l0-27-18 0 0 27z m-88 0c0 4 4 8 9 8 5 0 9-4 9-8l0-27-18 0 0 27z m-88 0c0 4 4 8 8 8 5 0 9-4 9-8l0-27-17 0z m-53-27c0 5 4 9 9 9l26 0 0-18c0-5 4-9 9-9l35 0c5 0 9 4 9 9l0 18 35 0 0-18c0-5 4-9 9-9l35 0c5 0 9 4 9 9l0 18 35 0 0-18c0-5 4-9 9-9l36 0c4 0 8 4 8 9l0 18 36 0 0-18c0-5 4-9 8-9l36 0c5 0 9 4 9 9l0 18 26 0c5 0 9-4 9-9l0-44-388 0z m0-362l0 300 388 0 0-86c-14 5-29 7-44 7-53 0-102-28-129-73-27-45-28-101-3-148l-212 0z m35-35l0 18 188 0c4-7 9-13 15-18z m309-27c-73 0-132 60-132 133 0 73 59 132 132 132 73 0 132-59 132-132 0-73-59-133-132-133z m-283 327c-14 0-26-12-26-27 0-14 12-26 26-26 15 0 27 12 27 26 0 15-12 27-27 27z m0-35c-4 0-8 4-8 8 0 5 4 9 8 9 5 0 9-4 9-9 0-4-4-8-9-8z m89 35c-15 0-27-12-27-27 0-14 12-26 27-26 14 0 26 12 26 26 0 15-12 27-26 27z m0-35c-5 0-9 4-9 8 0 5 4 9 9 9 5 0 9-4 9-9 0-4-4-8-9-8z m88-18c15 0 27 12 27 26 0 15-12 27-27 27-15 0-26-12-26-27 0-14 11-26 26-26z m0 35c5 0 9-4 9-8 0-5-4-9-9-9-5 0-9 4-9 9 0 4 4 8 9 8z m-177-53c-14 0-26-12-26-26 0-15 12-27 26-27 15 0 27 12 27 27 0 14-12 26-27 26z m0-35c-4 0-8 4-8 9 0 5 4 9 8 9 5 0 9-4 9-9 0-5-4-9-9-9z m89 35c-15 0-27-12-27-26 0-15 12-27 27-27 14 0 26 12 26 27 0 14-12 26-26 26z m0-35c-5 0-9 4-9 9 0 5 4 9 9 9 5 0 9-4 9-9 0-5-4-9-9-9z m-89-35c-14 0-26-12-26-27 0-14 12-26 26-26 15 0 27 12 27 26 0 15-12 27-27 27z m0-36c-4 0-8 4-8 9 0 5 4 9 8 9 5 0 9-4 9-9 0-5-4-9-9-9z m89 36c-15 0-27-12-27-27 0-14 12-26 27-26 14 0 26 12 26 26 0 15-12 27-26 27z m0-36c-5 0-9 4-9 9 0 5 4 9 9 9 5 0 9-4 9-9 0-5-4-9-9-9z m194 98c-63-1-115-52-115-115 0-64 52-115 115-115 63 0 115 51 115 115 0 63-52 115-115 115z m79-133l16 0c-8-43-43-75-86-79l0 17c0 5-4 9-9 9-5 0-9-4-9-9l0-17c-43 4-78 36-86 79l16 0c5 0 8 4 8 9 0 5-4 9-8 9l-18 0c0 50 38 92 88 96l0-17c0-5 4-9 9-9 5 0 9 4 9 9l0 17c50-4 88-46 88-96l-18 0c-4 0-8-4-8-9 0-5 4-9 8-9z m-32 60l-45-38-12 18c-3 4-9 5-13 3-4-3-5-9-2-13l18-26c1-2 3-4 6-4 0 0 1 0 1 0 2 0 4 1 6 2l53 44c4 3 4 9 1 13-3 3-9 4-13 1z"/>
<glyph glyph-name="dashboard" unicode="&#99;" d="M399 449c-43 28-92 43-143 43-141 0-256-113-256-254 0-52 14-101 43-144l35 0 45 39-21 25-41-37c-20 35-30 74-30 115 0 2 0 4 0 6l51 0 0 32-51 0c6 39 22 76 47 105l35-35 22 23-33 36c37 33 82 56 134 60l0-57 30 0 0 57c56-2 107-25 148-62l-37-36 22-23 37 37c23-29 39-66 45-103l-51 0 0-32 53 0c0-2 0-4 0-6 0-41-10-80-30-115l-39 39-23-23 43-43 35 0c78 115 47 275-70 353z m-260-369l0-60 232 0 0 60z m150 137c0 12-10 23-23 25 0 0 0 0-2 0l-104 75 82-100c0-12 10-22 22-22 15 0 25 10 25 22z"/>
<glyph glyph-name="settings" unicode="&#100;" d="M486 310l-36 6c-4 12-9 24-15 35l22 29c9 13 7 30-4 41l-32 32c-6 6-14 9-22 9-7 0-13-2-18-6l-30-21c-12 6-24 11-36 15l-6 36c-3 15-16 26-31 26l-45 0c-16 0-29-11-32-26l-6-37c-12-4-24-8-35-14l-29 21c-5 4-12 6-18 6-9 0-17-4-23-10l-32-32c-11-10-12-28-3-40l21-30c-6-12-10-23-14-35l-36-6c-15-3-26-16-26-32l0-45c0-15 11-28 26-31l37-6c4-12 8-24 14-35l-21-29c-9-13-7-30 4-41l32-32c6-6 14-9 22-9 7 0 13 2 18 6l30 21c11-5 23-10 34-14l6-36c3-15 16-26 31-26l46 0c15 0 28 11 31 26l6 36c12 4 24 9 35 15l29-21c6-4 12-6 19-6 8 0 16 3 22 9l32 32c11 11 12 28 3 41l-21 29c6 12 11 23 15 35l36 6c15 3 26 16 26 31l0 46c0 15-11 28-26 31z m-3-77c0-1-1-2-2-2l-45-8c-6-1-10-5-11-10-5-16-11-31-19-45-3-5-3-11 1-16l26-37c1-1 1-3 0-4l-32-32c-1 0-2 0-2 0-1 0-1 0-2 0l-37 26c-5 4-11 4-16 1-14-8-29-14-45-19-5-1-9-5-10-11l-8-45c0-1-1-2-2-2l-46 0c-1 0-2 1-2 2l-8 45c-1 6-5 10-10 11-16 4-30 11-44 18-2 2-5 2-7 2-3 0-6 0-9-2l-37-27c-1 0-1 0-2 0 0 0-1 0-2 0l-32 32c-1 1-1 3 0 4l26 37c4 5 4 11 1 16-8 14-15 29-19 44-1 6-6 10-12 11l-45 8c-1 0-2 1-2 2l0 45c0 2 1 3 2 3l45 8c6 1 10 5 11 10 4 16 11 31 19 45 3 5 2 11-1 16l-27 37c0 1 0 3 1 4l32 32c0 1 1 1 2 1 0 0 1 0 1-1l37-26c5-3 11-4 16-1 14 9 29 15 45 19 5 2 9 6 10 12l8 45c0 1 1 2 3 2l45 0c1 0 2-1 3-2l7-45c1-5 5-10 11-11 16-4 31-11 46-19 5-3 11-3 15 0l37 27c1 0 1 0 2 0 0 0 1 0 2 0l32-32c1-1 1-3 0-4l-26-37c-4-5-4-11-1-16 8-14 15-29 19-45 1-5 6-9 11-10l45-8c1 0 2-1 2-2l0-46z m-227 134c-61 0-110-50-110-111 0-61 49-110 110-110 61 0 111 49 111 110 0 61-50 111-111 111z m0-193c-45 0-82 37-82 82 0 45 37 82 82 82 45 0 82-37 82-82 0-45-37-82-82-82z"/>
<glyph glyph-name="class" unicode="&#101;" d="M135 512c-33 0-60-28-60-61 0-33 27-60 60-60 33 0 60 27 60 60 0 33-27 61-60 61z m0-91c-17 0-30 13-30 30 0 17 14 31 30 31 16 0 30-14 30-31 0-17-13-30-30-30z m332 91l-212 0c-25 0-45-20-45-45l0-102-13 13c-9 8-20 13-32 13l-30 0c-6 0-54 0-60 0-41 0-75-34-75-75 0-9 0-78 0-90 0-25 20-45 45-45 5 0 10 1 15 3l0-139c0-25 20-45 45-45 12 0 22 4 30 11 8-7 18-11 30-11 25 0 45 20 45 45l0 199c11-4 24-4 35 2l51 25 171 0c25 0 45 20 45 45l0 151c0 25-20 45-45 45z m-175-209l-60-30c-6-3-13-2-18 2l-8 9c-10 9-26 3-26-10 0 0 0 0 0 0l0-229c0-8-7-15-15-15-8 0-15 7-15 15l0 151c0 8-7 15-15 15-8 0-15-7-15-15l0-151c0-8-7-15-15-15-8 0-15 7-15 15l0 181c0 11 0 81 0 90 0 8-7 15-15 15-8 0-15-7-15-15 0-9 0-78 0-90 0-8-7-15-15-15-8 0-15 7-15 15 0 11 0 81 0 90 0 25 20 45 45 45 11 0 81 0 90 0 4 0 8-2 11-4l44-45c5-5 12-6 18-3l40 20c8 4 17 1 20-6 4-8 1-17-6-20z m190 13c0-8-7-15-15-15l-140 0c1 0 1 1 1 1 2 6 3 13 2 20l82 41c7 3 10 12 6 20-3 7-12 10-20 6l-82-41c-13 13-33 17-51 8l-25-12 0 123c0 8 7 15 15 15l212 0c8 0 15-7 15-15z"/>
<glyph glyph-name="down-arrow" unicode="&#102;" d="M452 414l-196-196-196 196-60-60 256-256 256 256z"/>
<glyph glyph-name="email" unicode="&#103;" d="M467 454l-422 0c-25 0-45-21-45-46l0-304c0-25 20-46 45-46l422 0c25 0 45 21 45 46l0 304c0 25-20 46-45 46z m-6-31l-204-206-206 206z m-431-313l0 292 145-145z m21-21l145 146 50-51c3-3 7-4 11-4 4 0 8 1 11 4l49 50 144-145-410 0z m431 21l-144 146 144 146 0-292z"/>
<glyph glyph-name="students" unicode="&#104;" d="M343 231l-10 0c25 22 41 55 41 91l0 160 28 0 0-86 30 0 0 86 27 0 0 30-405 0 0-30 77 0 0-160c0-36 16-69 42-91l-4 0c-73 0-132-59-132-132l0-99 438 0 0 99c0 73-59 132-132 132z m1 251l0-99-183 0 0 99z m-183-160l0 31 183 0 0-31c0-50-41-91-91-91-51 0-92 41-92 91z m158-121l-63-86-63 86z m126-171l-378 0 0 69c0 52 39 95 89 101l100-135 100 135c50-6 89-49 89-101z"/>
<glyph glyph-name="notify" unicode="&#105;" d="M358 427c-18 0-34-16-34-34l0-11-265-84c-2 15-14 26-29 26-17 0-30-13-30-30l0-76c0-17 13-30 30-30 15 0 27 11 29 26l19-6c-3-3-5-6-7-10-5-16 4-32 19-37l97-32 0 0c3-1 6-1 9-1 13 0 24 8 28 20 1 5 2 9 1 14l99-32 0-11c0-18 16-34 34-34 19 0 35 16 35 34l0 274c0 18-16 34-35 34z m-150-274c-2-6-9-9-15-7l-98 31c-6 2-9 9-7 15 2 7 8 10 15 8l97-32c6-2 10-8 8-15z m-165 65c0-7-6-13-13-13-7 0-13 6-13 13l0 76c0 7 6 13 13 13 7 0 13-6 13-13z m17 14l0 48 264 84 0-216z m315-113c0-9-7-17-17-17-9 0-17 8-17 17l0 274c0 9 8 17 17 17 10 0 17-8 17-17z m94 146l-8 0c-5 0-9-4-9-9 0-5 4-9 9-9l8 0c5 0 9 4 9 9 0 5-4 9-9 9z m-42-18l8 0c5 0 9 4 9 9 0 5-4 9-9 9l-8 0c-5 0-9-4-9-9 0-5 4-9 9-9z m76 18l-8 0c-5 0-9-4-9-9 0-5 4-9 9-9l8 0c5 0 9 4 9 9 0 5-4 9-9 9z m-52 106c2 0 4 1 6 2l6 6c3 4 3 9 0 12-3 4-9 4-12 0l-6-6c-4-3-4-8 0-12 1-1 4-2 6-2z m24 24c2 0 4 1 6 3l6 6c3 3 3 8 0 12-3 3-9 3-12 0l-6-6c-3-4-3-9 0-12 2-2 4-3 6-3z m-48-48c2 0 4 1 6 2l6 6c3 4 3 9 0 12-4 4-9 4-12 0l-6-6c-4-3-4-8 0-12 1-1 3-2 6-2z m5-32l-8-3c-4-1-7-6-5-11 1-3 4-5 8-5 1 0 1 0 2 0l8 3c5 1 7 6 6 10-2 5-6 7-11 6z m27-9c1 0 2 0 3 1l8 2c4 2 7 7 5 11-1 5-6 7-11 6l-8-3c-4-2-7-6-5-11 1-3 4-6 8-6z m24 17c2-4 5-6 8-6 1 0 2 0 3 1l8 2c5 2 7 7 6 11-2 5-7 7-11 5l-8-2c-5-2-7-7-6-11z m-2-209c-3 4-9 4-12 0-3-3-3-8 0-12l6-6c2-1 4-2 6-2 2 0 4 1 6 2 3 4 3 9 0 12z m-24 25c-4 3-9 3-12 0-4-4-4-9 0-12l6-6c1-2 4-3 6-3 2 0 4 1 6 3 3 3 3 8 0 12z m-24 24c-4 3-9 3-12 0-4-4-4-9 0-12l6-6c1-2 4-3 6-3 2 0 4 1 6 3 3 3 3 8 0 12z m23 26l8-3c1 0 2 0 3 0 4 0 7 2 8 6 2 4-1 9-5 11l-8 2c-5 2-10-1-11-5-2-5 1-9 5-11z m-19 24l-8 3c-4 2-9-1-10-5-2-5 0-10 5-11l8-3c1 0 2 0 3 0 3 0 7 2 8 6 1 4-1 9-6 10z m65-21l-8 2c-4 2-9-1-11-5-1-4 1-9 6-11l8-2c1-1 2-1 3-1 3 0 6 2 8 6 1 4-1 9-6 11z"/>
<glyph glyph-name="parents" unicode="&#106;" d="M154 188c4 0 8 4 8 8l0 62c5 3 9 9 9 15 0 9-8 17-17 17-10 0-17-8-17-17 0-6 3-12 8-15l0-62c0-4 4-8 9-8z m-68 190c1-17 8-31 9-32 8-15 19-39 59-39 39 0 51 24 58 39 1 1 8 15 10 32 5 2 8 8 8 15l0 17c0 6-3 11-8 14l0 3c0 28-23 51-51 51l-34 0c-29 0-52-23-52-51l0-3c-5-3-8-8-8-14l0-17c0-7 3-13 9-15z m8 32c5 0 8 3 8 8l0 9c0 18 16 34 35 34l34 0c18 0 34-16 34-34l0-9c0-5 4-8 8-8l0-17c-4 0-8-4-8-9 0-15-8-30-8-30-9-18-17-30-43-30-27 0-35 12-44 30 0 0-8 15-8 30 0 5-3 9-8 9z m77-17l8 0c5 0 9 3 9 8 0 5-4 9-9 9l-8 0c-5 0-9-4-9-9 0-5 4-8 9-8z m-43 0l9 0c4 0 8 3 8 8 0 5-4 9-8 9l-9 0c-5 0-9-4-9-9 0-5 4-8 9-8z m-68-205c-5 0-9-4-9-9l0-136c0-5 4-9 9-9 4 0 8 4 8 9l0 136c0 5-4 9-8 9z m393 0l0 0c-5 0-9-4-9-9l0-136c0-5 4-9 8-9l0 0c5 0 9 4 9 9l0 136c0 5-3 9-8 9z m-78 216c-1 3-4 6-8 6-4 0-7-3-8-6-7-19-25-20-26-20-5 0-9-4-9-9l0-34c0-28 20-68 51-68 32 0 52 40 52 68l0 34c0 5-4 9-9 9 0 0-37 1-43 20z m35-63c0-23-16-51-35-51-18 0-34 28-34 51l0 27c9 2 19 7 27 16 12-12 31-15 42-17z m81-94c-17 17-42 26-73 26-4 0-8-4-8-9 0-1-1-42-35-42-33 0-34 41-34 42 0 5-3 9-8 9-5 0-9-4-9-9 0-19 9-53 43-59l0-43c0-5 4-8 8-8 5 0 9 3 9 8l0 43c29 5 40 31 42 51 23-2 41-9 53-21 10-10 16-24 16-39l0-136c0-5 4-9 8-9 5 0 9 4 9 9l0 136c0 20-7 38-21 51z m-244-59c-4 0-8-4-8-9l0-136c0-5 4-9 8-9 5 0 9 4 9 9l0 136c0 5-4 9-9 9z m120 256l17 0c22 0 50-23 51-44l9-111c0-4 4-7 8-7 0 0 1 0 1 0 5 0 8 4 8 9l-9 111c-2 31-40 59-68 59l-17 0c-31 0-66-30-68-59l-9-111c0-5 3-9 8-9 5-1 9 3 9 7l9 111c2 21 29 44 51 44z m-170-154c-4 0-8-3-9-7l-34-164-35 164c-1 4-5 7-9 7-44 0-79-10-96-27-9-9-14-20-14-33l0-170c0-5 4-9 9-9 4 0 8 4 8 9l0 170c0 8 3 15 9 21 13 13 41 21 78 22l41-198c0 0 0 0 0 0l0 0c0 0 0 0 1-1 0 0 0-1 1-2 0 0 0-1 1-1 0 0 0-1 1-1 0-1 1-1 2-1 0 0 0 0 1-1l0 0c0 0 1 0 2 0 0 0 1 0 1 0l0 0c1 1 1 1 1 1 1 0 2 0 2 1 1 0 1 0 1 1 1 0 1 1 2 1 0 1 0 2 1 2 0 1 0 1 0 1l0 0c0 0 0 0 0 0l41 198c37-1 65-9 78-22 6-6 9-13 9-21l0-170c0-5 4-9 9-9 4 0 8 4 8 9l0 170c0 13-4 24-14 33-17 17-51 27-96 27z"/>
<glyph glyph-name="class-1" unicode="&#107;" d="M51 162c-19 0-34-15-34-34 0-19 15-34 34-34 19 0 34 15 34 34 0 19-15 34-34 34z m0-51c-9 0-17 8-17 17 0 9 8 17 17 17 10 0 17-8 17-17 0-9-7-17-17-17z m0-26c-28 0-51-23-51-51l0-25c0-5 4-9 9-9 4 0 8 4 8 9l0 25c0 19 15 34 34 34 19 0 34-15 34-34l0-25c0-5 4-9 9-9 5 0 8 4 8 9l0 25c0 28-23 51-51 51z m137 77c-19 0-34-15-34-34 0-19 15-34 34-34 19 0 34 15 34 34 0 19-15 34-34 34z m0-51c-10 0-17 8-17 17 0 9 7 17 17 17 9 0 17-8 17-17 0-9-8-17-17-17z m0-26c-29 0-51-23-51-51l0-25c0-5 3-9 8-9 5 0 9 4 9 9l0 25c0 19 15 34 34 34 19 0 34-15 34-34l0-25c0-5 4-9 8-9 5 0 9 4 9 9l0 25c0 28-23 51-51 51z m136 77c-19 0-34-15-34-34 0-19 15-34 34-34 19 0 34 15 34 34 0 19-15 34-34 34z m0-51c-9 0-17 8-17 17 0 9 8 17 17 17 10 0 17-8 17-17 0-9-7-17-17-17z m0-26c-28 0-51-23-51-51l0-25c0-5 4-9 9-9 4 0 8 4 8 9l0 25c0 19 15 34 34 34 19 0 34-15 34-34l0-25c0-5 4-9 9-9 5 0 8 4 8 9l0 25c0 28-22 51-51 51z m137 77c-19 0-34-15-34-34 0-19 15-34 34-34 19 0 34 15 34 34 0 19-15 34-34 34z m0-51c-10 0-17 8-17 17 0 9 7 17 17 17 9 0 17-8 17-17 0-9-8-17-17-17z m0-26c-28 0-51-23-51-51l0-25c0-5 3-9 8-9 5 0 9 4 9 9l0 25c0 19 15 34 34 34 19 0 34-15 34-34l0-25c0-5 4-9 8-9 5 0 9 4 9 9l0 25c0 28-23 51-51 51z m-410 239c-19 0-34-15-34-34 0-19 15-34 34-34 19 0 34 15 34 34 0 19-15 34-34 34z m0-51c-9 0-17 8-17 17 0 10 8 17 17 17 10 0 17-7 17-17 0-9-7-17-17-17z m0-26c-28 0-51-22-51-51l0-25c0-5 4-9 9-9 4 0 8 4 8 9l0 25c0 19 15 34 34 34 19 0 34-15 34-34l0-25c0-5 4-9 9-9 5 0 8 4 8 9l0 25c0 29-23 51-51 51z m137 77c-19 0-34-15-34-34 0-19 15-34 34-34 19 0 34 15 34 34 0 19-15 34-34 34z m0-51c-10 0-17 8-17 17 0 10 7 17 17 17 9 0 17-7 17-17 0-9-8-17-17-17z m0-26c-29 0-51-22-51-51l0-25c0-5 3-9 8-9 5 0 9 4 9 9l0 25c0 19 15 34 34 34 19 0 34-15 34-34l0-25c0-5 4-9 8-9 5 0 9 4 9 9l0 25c0 29-23 51-51 51z m136 77c-19 0-34-15-34-34 0-19 15-34 34-34 19 0 34 15 34 34 0 19-15 34-34 34z m0-51c-9 0-17 8-17 17 0 10 8 17 17 17 10 0 17-7 17-17 0-9-7-17-17-17z m0-26c-28 0-51-22-51-51l0-25c0-5 4-9 9-9 4 0 8 4 8 9l0 25c0 19 15 34 34 34 19 0 34-15 34-34l0-25c0-5 4-9 9-9 5 0 8 4 8 9l0 25c0 29-22 51-51 51z m137 77c-19 0-34-15-34-34 0-19 15-34 34-34 19 0 34 15 34 34 0 19-15 34-34 34z m0-51c-10 0-17 8-17 17 0 10 7 17 17 17 9 0 17-7 17-17 0-9-8-17-17-17z m0-26c-28 0-51-22-51-51l0-25c0-5 3-9 8-9 5 0 9 4 9 9l0 25c0 19 15 34 34 34 19 0 34-15 34-34l0-25c0-5 4-9 8-9 5 0 9 4 9 9l0 25c0 29-23 51-51 51z m-26 265l-358 0c-5 0-9-4-9-9l0-153c0-5 4-9 9-9l358 0c5 0 9 4 9 9l0 153c0 5-4 9-9 9z m-8-154l-342 0 0 137 342 0z m-86 111c-33 0-59-18-59-42 0-24 26-43 59-43 34 0 60 19 60 43 0 24-26 42-60 42z m0-68c-23 0-42 12-42 26 0 12 15 22 34 25l0-25c0-3 1-5 2-6l19-19c-4 0-9-1-13-1z m30 8l-21 21 0 22c19-3 34-13 34-25-1-8-6-15-13-18z m-243 60l-17 0c-5 0-9-3-9-8 0-5 4-9 9-9l17 0c5 0 9 4 9 9 0 5-4 8-9 8z m119 0l-93 0c-5 0-9-3-9-8 0-5 4-9 9-9l93 0c5 0 9 4 9 9 0 5-4 8-9 8z m-42-34l-94 0c-5 0-9-4-9-8 0-5 4-9 9-9l94 0c5 0 8 4 8 9 0 4-3 8-8 8z m42 0l-17 0c-4 0-8-4-8-8 0-5 4-9 8-9l17 0c5 0 9 4 9 9 0 4-4 8-9 8z m-93-34l-43 0c-5 0-9-4-9-8 0-5 4-9 9-9l43 0c4 0 8 4 8 9 0 4-4 8-8 8z m93 0l-68 0c-5 0-8-4-8-8 0-5 3-9 8-9l68 0c5 0 9 4 9 9 0 4-4 8-9 8z"/>
<glyph glyph-name="school-bus" unicode="&#108;" d="M444 510l-376 2 0 0c-14 0-27-5-37-15-9-10-15-23-15-36l0-349c0-18 10-35 25-45l0-35c0-18 15-32 33-32l42 0c9 0 17 3 23 9 6 6 9 14 9 23l0 28 216 0 0-28c0-18 14-32 32-32l42 0c18 0 33 14 33 32l0 35c15 10 25 27 25 45l0 347c0 28-23 51-52 51z m-403-88l202-1 0-149-202 0z m82-390c0-2-1-4-2-5-1-1-3-2-5-2l-42 0c-4 0-7 3-7 7l0 29c1 0 0-1 1-1l55 0z m322 0c0-4-3-7-7-7l-42 0c-2 0-4 1-5 2-1 1-2 3-2 5l0 28 55 0c1 0 0 1 1 1z m26 80c0-14-12-27-27-27l-376 0c-15 0-27 13-27 27l0 135 212-1c1 0 2 0 3 0 1 0 2 0 3 0l212-1z m0 159l-202 0 0 150 202-1z m0 174l-430 2 0 14c0 7 3 13 8 18 5 5 11 8 18 8l1 0 376-2c15 0 27-11 27-26z m-97-320l68 0c7 0 12 6 12 13l0 46c0 7-5 13-12 13l-68 0c-7 0-13-6-13-13l0-46c0-7 6-13 13-13z m13 47l42 0 0-21-42 0z m-249 25l-68 0c-7 0-12-6-12-13l0-46c0-7 5-13 12-13l68 0c7 0 13 6 13 13l0 46c0 7-6 13-13 13z m-13-46l-42 0 0 21 42 0z m195-3l-128 0c-7 0-13-6-13-12 0-7 6-13 13-13l128 0c7 0 13 6 13 13 0 6-6 12-13 12z m-141 33c0-7 6-13 13-13l128 0c7 0 13 6 13 13 0 7-6 12-13 12l-128 0c-7 0-13-5-13-12z"/>
<glyph glyph-name="attendance" unicode="&#109;" d="M492 162c-13 50-58 85-110 85-31 0-61-13-83-35-30 24-69 38-108 37l0 0c-48 0-92-18-124-52-33-33-51-80-51-130 0-3 1-5 3-7 2-2 4-3 7-3l272 0c0 0 1-1 1-2 36-37 93-46 138-21 45 25 68 78 55 128z m-209-84l-246 0c2 40 18 77 45 105 28 30 67 46 109 46l0 0c35 0 69-12 96-34-23-35-25-80-4-117z m99-37c-51 0-93 41-93 93 0 51 42 93 93 93 51 0 93-42 93-93 0-52-42-93-93-93z m-191 233c60 0 109 49 109 109 0 61-49 110-109 110-61 0-110-49-110-110 1-60 49-109 110-109z m0 198c49 0 88-40 88-89 0-49-39-88-88-88-49 0-89 39-89 88 0 49 40 89 89 89z m226-307l-50-41-18 22c-4 4-11 5-15 1-4-4-5-10-1-15l25-29c2-2 5-3 8-3 2 0 4 1 6 2l58 47c4 4 5 10 1 15-3 4-10 5-14 1z"/>
<glyph glyph-name="education" unicode="&#110;" d="M256 205l-153 47 0-79c0-36 69-65 153-65 84 0 153 29 153 65 0 1 0 1 0 1l0 78z m-256 101l55-20 4 10 20 2 3-3-17-4-3-7c0 0-38-82-33-121 0 0 25-15 49 0l6 108 0 9 36 8-2-6-27-9 12-4 153-47 153 47 103 37-256 98z"/>
<glyph glyph-name="trash" unicode="&#111;" d="M228 448l64 0c8 0 17-3 23-9 6-6 9-15 9-23l0-16 96 0 0-32-16 0 0-256c0-26-22-48-48-48l-192 0c-26 0-48 22-48 48l0 256-16 0 0 32 96 0 0 16c0 8 3 17 9 23 6 6 15 9 23 9z m0-32l0-16 64 0 0 16z m-80-48l0-256c0-9 7-16 16-16l192 0c9 0 16 7 16 16l0 256z m32-48l32 0 0-176-32 0z m64 0l32 0 0-176-32 0z m64 0l32 0 0-176-32 0z"/>
<glyph glyph-name="edit" unicode="&#113;" d="M400 448c12 0 24-5 34-14 18-19 18-49 0-68l-162-162-5-1-56-11-24-5 5 24 12 56 1 5 3 3 159 158c9 10 21 14 33 14z m0-32c-4 0-7-1-11-5l-155-155-6-28 28 6 155 155c7 7 7 15 0 22-4 4-7 5-11 5z m-336-32l211 0-32-32-147 0 0-256 256 0 0 147 32 32 0-211-320 0z"/>
<glyph glyph-name="view" unicode="&#112;" d="M503 270c-7 3-16 0-20-8-39-90-129-149-227-149-96 0-184 56-225 143 42 87 129 142 225 142 69 0 137-29 183-81 6-6 15-7 22-1 6 5 6 15 1 21-53 58-128 91-206 91-110 0-210-65-255-166-2-4-2-8 0-12 45-101 145-166 255-166 110 0 210 65 255 166 3 7 0 16-8 20z m-351-14c0-58 47-105 104-105 58 0 105 47 105 105 0 57-47 104-105 104-57 0-104-47-104-104z m178 0c0-41-33-75-74-75-41 0-74 34-74 75 0 41 33 74 74 74 41 0 74-33 74-74z"/>
<glyph glyph-name="icon-exclamation-mark" unicode="&#114;" d="M302 48c0-25-21-46-46-46-25 0-46 21-46 46 0 26 21 46 46 46 25 0 46-20 46-46z m-92 462l92 0 0-347-92 0z"/>
<glyph glyph-name="icon-question-mark" unicode="&#115;" d="M243 157c0 6 0 11 0 14 0 18 3 34 8 47 4 10 10 20 18 30 6 7 17 18 33 32 17 15 27 26 32 34 5 9 7 18 7 28 0 18-7 34-21 47-14 14-32 21-52 21-20 0-36-6-49-19-14-12-22-31-26-58l-48 6c4 35 17 62 38 81 21 19 49 28 84 28 37 0 67-10 89-30 22-20 33-45 33-73 0-17-4-32-12-46-8-14-23-31-45-50-15-14-25-24-30-30-5-7-8-14-10-22-2-8-4-22-4-40z m-2-93l0 53 52 0 0-53z"/>
<glyph glyph-name="icon-tick-mark" unicode="&#116;" d="M171 49l-171 171 47 47 124-124 294 294 47-47-341-341"/>
</font>
</defs>
</svg>
